עבור אל תוכן

Classic Movie Pack [Funky]{TU}


  • אנא התחבר בכדי להגיב
אין תגובות לנושא זה

#1
 Effectively

Effectively
  •  צוות לשעבר
  • 2514 הודעות
    • מונה תודות: 88 תודות
75
טוב מאוד

תמונה שפורסמה
Classic Movie Pack
תמונה שפורסמה


תמונה שפורסמה

תמונה שפורסמה

China Clipper

Video:

size: 0.99 gb
video codec : xvid
640x480


From IMDb wrote:

A no-nonsense dreamer drives his men & machines to the breaking point in an attempt to establish a transpacific route for his flying CHINA CLIPPERS.Warner Brothers gives a rousing production to a story that is essentially, on analysis, a soap opera with wings. Based on the history of Pan American Airlines, the film is at its very best when it takes to the air, especially during the exciting prolonged climax with its race to beat the clock in the initial flight from California to Macao.


Quote:

Inspired by Lindbergh's flight, Dave Logan sets out with a Washington-Philadelphia airline but suffers financial problems. With flying ace Hap Stuart he tries clipper ships on the Caribbean, then aims for the trans-Pacific route. His relentless ambition forces those closest to him to abandon him.

http://www.imdb.com/title/tt0027445

תמונה שפורסמה

Virginia City

AVI File Details
========================================
File Name .......................................: virginia city.avi
File Size (in bytes) ............................: 1,463,726,066 bytes
Runtime .........................................: 2:01:06

Video Info
Video Codec .....................................: XviD 1.1.2 Final
Frame Size ......................................: 512x384 (AR: 1.333)
FPS .............................................: 23.976
Video Bitrate ...................................: 1522 kb/s
Bits per Pixel ..................................: 0.323 bpp
Compatibillity...................................: [], [N-VOP], [], []

Audio Info
Audio Codec .....................................: 0x0055 MPEG-1 Layer 3
Sample Rate .....................................: 48000 Hz
Audio Bitrate ...................................: 77 kb/s [1 channel(s)] VBR
No. of audio streams ............................: 1


http://www.imdb.com/title/tt0033226/

תמונה שפורסמה

You Can't Get Away with Murder

Video Specs ...


Format : AVI
Format/Info : Audio Video Interleave
File size : 789 MiB
Duration : 1h 18mn
Overall bit rate : 1 404 Kbps
Writing application : VirtualDubMod 1.5.10.2 (build 2540/release)
Writing library : VirtualDubMod build 2540/release
Video
Format : MPEG-4 Visual
Format profile : Streaming Video@L1
Format settings, BVOP : Yes
Format settings, QPel : No
Format settings, GMC : No warppoints
Format settings, Matrix : Default
Codec ID : XVID
Codec ID/Hint : XviD
Duration : 1h 18mn
Bit rate : 1 331 Kbps
Width : 576 pixels
Height : 432 pixels
Display aspect ratio : 4/3
Frame rate : 23.976 fps
Resolution : 24 bits
Colorimetry : 4:2:0
Scan type : Progressive
Bits/(Pixel*Frame) : 0.223
Stream size : 748 MiB (95%)
Writing library : XviD 1.1.2 (UTC 2006-11-01)
Audio
Format : MPEG Audio
Format version : Version 1
Format profile : Layer 3
Codec ID : 55
Codec ID/Hint : MP3
Duration : 1h 18mn
Bit rate mode : Variable
Bit rate : 60.2 Kbps
Nominal bit rate : 64.0 Kbps
Channel(s) : 1 channel
Sampling rate : 48.0 KHz
Resolution : 16 bits
Stream size : 33.9 MiB (4%)
Alignment : Aligned on interleaves
Interleave, duration : 24 ms (0.58 video frame)
Interleave, preload duration : 592 ms
Writing library : LAME3.90.
Encoding settings : ABR

http://www.imdb.com/title/tt0032153/

Women of all Nations

AVI File Details
========================================
File Name .......................................: Women of All Nations.avi
File Size (in bytes) ............................: 886,700,032 bytes
Runtime .........................................: 1:12:24

Video Info
Video Codec .....................................: XviD ISO MPEG-4
Frame Size ......................................: 640x480 (AR: 1.333)
FPS .............................................: 25.000
Video Bitrate ...................................: 1411 kb/s
Bits per Pixel ..................................: 0.184 bpp
Compatibility...................................: [], [], [], []

Audio Info
Audio Codec .....................................: 0x0055 (MP3)
Sample Rate .....................................: 48000 Hz
Audio Bitrate ...................................: 160 kb/s [2 channel(s)]
No. of audio streams ............................: 1


http://www.imdb.com/title/tt0022576/

תמונה שפורסמה

The Big Shot

I'm surprised this isn't more widely known or available, I thought it was a pretty good crime noir with some great moments. And of course Bogart is wonderful in it, just watching him light a cigarette entertains me. I think it's been neglected because it came between "The Maltese Falcon" and "Casablanca", but it has it's own merits as a solid b-picture with a great lead performance.

TV rip; station watermark in upper left corner throughout.

AVI File Details
========================================
File Name .......................................: The Big Shot 1942.avi
File Size (in bytes) ............................: 734,042,112 bytes
Runtime .........................................: 1:18:03

Video Info
Video Codec .....................................: DivX 5.0.5
Frame Size ......................................: 640x480 (AR: 1.333)
FPS .............................................: 29.970
Video Bitrate ...................................: 1117 kb/s
Bits per Pixel ..................................: 0.121 bpp
Compatibillity...................................: [], [], [], []

Audio Info
Audio Codec .....................................: 0x0055 MPEG-1 Layer 3
Sample Rate .....................................: 48000 Hz
Audio Bitrate ...................................: 128 kb/s [2 channel(s)] CBR
No. of audio streams ............................: 1

http://www.imdb.com/title/tt0034513/

תמונה שפורסמה

The Great O'Malley

In black & white.

Specs:

Complete name : C:CinamegThe Great O'Malley.avi
Format : AVI
Format/Info : Audio Video Interleave
File size : 780 MiB
Duration : 1h 10mn
Overall bit rate : 1 543 Kbps
Writing application : VirtualDubMod 1.5.10.2 (build 2540/release)
Writing library : VirtualDubMod build 2540/release

Video
ID : 0
Format : MPEG-4 Visual
Format profile : AdvancedSimple@L5
Format settings, BVOP : Yes
Format settings, QPel : No
Format settings, GMC : No warppoints
Format settings, Matrix : Default (MPEG)
Codec ID : XVID
Codec ID/Hint : XviD
Duration : 1h 10mn
Bit rate : 1 470 Kbps
Width : 640 pixels
Height : 480 pixels
Display aspect ratio : 4:3
Frame rate : 23.976 fps
Resolution : 24 bits
Colorimetry : 4:2:0
Scan type : Progressive
Bits/(Pixel*Frame) : 0.200
Stream size : 743 MiB (95%)
Writing library : XviD 1.1.2 (UTC 2006-11-01)

Audio
ID : 1
Format : MPEG Audio
Format version : Version 1
Format profile : Layer 3
Codec ID : 55
Codec ID/Hint : MP3
Duration : 1h 10mn
Bit rate mode : Variable
Bit rate : 60.4 Kbps
Channel(s) : 1 channel
Sampling rate : 48.0 KHz
Resolution : 16 bits
Stream size : 30.5 MiB (4%)
Alignment : Aligned on interleaves
Interleave, duration : 24 ms (0.58 video frame)
Interleave, preload duration : 495 ms

http://www.imdb.com/title/tt0028955/


תמונה שפורסמה

Racket Busters

File Name: Racket.Busters.1938.XviD.avi
File Size (in bytes): 733,296,640


--- Video Information ---
Video Codec Type(e.g. "DIV3"): XVID
Video Codec Name(e.g. "DivX 3, Low-Motion"): XviD ISO MPEG-4
Video Codec Status(e.g. "Codec Is Installed"): Codec(s) are NOT Installed
Duration (hh:mm:ss): 1:09:49
Frame Count: 125538
Frame Width (pixels): 528
Frame Height (pixels): 400
Storage Aspect Ratio("SAR")" 1.320
Pixel Aspect Ratio ("PAR"): 1.000
Display Aspect Ratio ("DAR"): 1.320
Fields Per Second:
Frames Per Second: 29.970
Pics Per Second: 29.970
Video Bitrate (kbps): 1277
MPEG-4 ("MPEG-4" or ""): MPEG-4

--- Audio Information ---
MPEG Stream ID (e.g. "0xbd"):
MPEG VOB file Substream(e.g. "0x80"):
Audio Codec (e.g. "AC3"): 0x0055 MPEG-1 Layer 3
Audio Codec Status (e.g. "Codec Is Installed"): Codec(s) are Installed
Audio Sample Rate (Hz): 48000
Audio Bitrate(kbps): 110
Audio Bitrate Type ("CBR" or "VBR"): VBR
Audio Channel Count (e.g. "2" for stereo): 2

http://www.imdb.com/title/tt0030650/

תמונה שפורסמה

Men Are Such Fools

AVI File Details
========================================
File Name .......................................: Men.Are.Such.Fools.1938.XVID-cg.avi
File Size (in bytes) ............................: 719,584,772 bytes
Runtime .........................................: 1:06:50

Video Info
Video Codec .....................................: XviD ISO MPEG-4
Frame Size ......................................: 512x384 (AR: 1.333)
FPS .............................................: 23.976
Video Bitrate ...................................: 1324 kb/s
Bits per Pixel ..................................: 0.281 bpp
Compatibillity...................................: [B-VOP], [], [], []

Audio Info
Audio Codec .....................................: 0x0055 MPEG-1 Layer 3
Sample Rate .....................................: 48000 Hz
Audio Bitrate ...................................: 99 kb/s [2 channel(s)] VBR
No. of audio streams ............................: 1

http://www.imdb.com/title/tt0030433/


תמונה שפורסמה

Chain Lightning

-+ Release Information +-

Humphrey Bogart takes to the air in this remarkably realistic air drama about ultra high performance, experimental jet aircraft - streaks of "chain lightning" - and the men whodare to fly them. Shucking his snap-brim felt hat for a leather flying helmet, his trench coat for a pressurized "G" suit, Bogie's tough nonchalance fits the bill perfectly as a crack WWII bomber pilot, reckless barnstormer, and finally, supersonic speedster. Matching his calm, cool exterior is Eleanor Parker, the woman who loves him but does not necessarily want him. Raymond Massey, as a multi-millionaire plane manufacturer who also tests his how planes, b ears a striking resemblance to a real-life winged eccentric named... Howard Hughes.

Splendid photography and ingenious special effects put you in the pilot's seat for this jet-propelled, thrill-a-minute drama that features one of the screen's greatest leading men in one of his most unique roles.

*Notes
Another laserdisc rip from FLAiR. Excellent video quality, fun flick, and it's got Humphrey. How can you go wrong? Don't even think of hitting and running on my torrents, btw. Enjoy!

http://www.imdb.com/title/tt0042324/

תמונה שפורסמה

It All Came True

AVI File Details
========================================
File Name .......................................: It.All.Came.True.1940.XVID-cg.avi
File Size (in bytes) ............................: 732,080,042 bytes
Runtime .........................................: 1:36:43

Video Info
Video Codec .....................................: XviD ISO MPEG-4
Frame Size ......................................: 512x384 (AR: 1.333)
FPS .............................................: 23.976
Video Bitrate ...................................: 896 kb/s
Bits per Pixel ..................................: 0.190 bpp
Compatibillity...................................: [B-VOP], [], [], []

Audio Info
Audio Codec .....................................: 0x0055 MPEG-1 Layer 3
Sample Rate .....................................: 48000 Hz
Audio Bitrate ...................................: 101 kb/s [2 channel(s)] VBR
No. of audio streams ............................: 1

http://www.imdb.com/title/tt0032643/


תמונה שפורסמה

Deadline U.S.A.

AVI File Details
========================================
File Name .......................................: Deadline - U.S.A. (1952) Humphrey Bogart, Ethel Barrymore, Ed Begley (DVDRTVRip)[Guild55].avi
File Size (in bytes) ............................: 1,174,853,632 bytes
Runtime .........................................: 1:26:40

Video Info
Video Codec .....................................: XviD ISO MPEG-4
Frame Size ......................................: 672x464 (AR: 1.448)
FPS .............................................: 29.970
Video Bitrate ...................................: 1607 kb/s
Bits per Pixel ..................................: 0.172 bpp
Compatibillity...................................: [B-VOP], [], [], []

Audio Info
Audio Codec .....................................: 0x2000 (Dolby AC3) AC3
Sample Rate .....................................: 48000 Hz
Audio Bitrate ...................................: 192 kb/s [2 channel(s)] CBR
No. of audio streams ............................: 1

http://www.imdb.com/title/tt0044533/

תמונה שפורסמה

A Holy Terror

AVI File Details
========================================
Name.........: A Holy Terror (1931) (VHSRip).avi
Filesize.....: 700 MB (or 717,248 KB or 734,462,318 bytes)
Runtime......: 00:48:58 (88,046 fr)
Video Codec..: DivX 5.0
Video Bitrate: 1863 kb/s
Audio Codec..: 0x0055(MP3) ID'd as MPEG-1 Layer 3
Audio Bitrate: 128 kb/s (64/ch, stereo) VBR
Frame Size...: 656x480 (1.37:1) [~26:19]

http://www.imdb.com/title/tt0021966/

תמונה שפורסמה

The Wagons Roll At Night

dur : 1:19:45 @ 25 fps
enc : XviD 1.1.2 Final
res : 576 x 432
1449 kb QF 0.233
snd : MPEG-1 Layer 3, 128 kb/s, Joint Stereo


http://www.imdb.com/title/tt0034370

קבצים שצורפו



קיבל תודות על-ידי 1 משתמש:



0 משתמשים קוראים נושא זה

0 משתמשים, 0 אורחים, 0 משתמשים אנונימיים