עבור אל תוכן

Bad Santa Unrated 2003 BluRay 1080p DTS x264 dxva-EuReKA


  • אנא התחבר בכדי להגיב
3 תגובות לנושא זה

#1
 Effectively

Effectively
  •  צוות לשעבר
  • 2514 הודעות
    • מונה תודות: 88 תודות
75
טוב מאוד

תמונה שפורסמה


IMDb: http://www.imdb.com/title/tt0307987/

MediaInfo:

General
Complete name : Bad.Santa.Unrated.2003.BluRay.1080p.DTS.x264.dxva-EuReKA.mkv
Format : Matroska
File size : 9.30 GiB
Duration : 1h 39mn
Overall bit rate : 13.4 Mbps
Encoded date : UTC 2008-12-24 06:51:05
Writing application : mkvmerge v2.4.0 ('Fumbling Towards Ecstasy') built on Oct 11 2008 20:13:15
Writing library : libebml v0.7.7 + libmatroska v0.8.1

Video
ID : 1
Format : AVC
Format/Info : Advanced Video Codec
Format profile : High@L4.1
Format settings, CABAC : Yes
Format settings, ReFrames : 4 frames
Muxing mode : Container profile=Unknown@4.1
Codec ID : V_MPEG4/ISO/AVC
Duration : 1h 39mn
Bit rate : 11.6 Mbps
Width : 1 920 pixels
Height : 1 040 pixels
Display aspect ratio : 16:9
Frame rate : 23.976 fps
Resolution : 24 bits
Colorimetry : 4:2:0
Scan type : Progressive
Bits/(Pixel*Frame) : 0.242
Stream size : 8.06 GiB (87%)
Title : x264 - crf encode
Writing library : x264 core 65 r1057M 5f8a149
Encoding settings : cabac=1 / ref=4 / deblock=1:-2:-2 / analyse=0x3:0x113 / me=umh / subme=7 / psy_rd=1.1:0.0 / mixed_ref=1 / me_range=24 / chroma_me=1 / trellis=2 / 8x8dct=1 / cqm=0 / deadzone=21,11 / chroma_qp_offset=-2 / threads=6 / nr=0 / decimate=0 / mbaff=0 / bframes=3 / b_pyramid=0 / b_adapt=1 / b_bias=0 / direct=3 / wpredb=1 / keyint=250 / keyint_min=25 / scenecut=40(pre) / rc=crf / crf=21.0 / qcomp=0.60 / qpmin=10 / qpmax=51 / qpstep=4 / vbv_maxrate=38000 / vbv_bufsize=30000 / ip_ratio=1.40 / pb_ratio=1.30 / aq=1:1.00
Language : English

Audio
ID : 2
Format : DTS
Format/Info : Digital Theater Systems
Codec ID : A_DTS
Duration : 1h 39mn
Bit rate mode : Constant
Bit rate : 1 510 Kbps
Channel(s) : 6 channels
Channel positions : Front: L C R, Surround: L R, LFE
Sampling rate : 48.0 KHz
Resolution : 24 bits
Stream size : 1.05 GiB (11%)
Title : DTS - 1536 kbits/sec
Language : English

Text #1
ID : 3
Format : UTF-8
Codec ID : S_TEXT/UTF8
Codec ID/Info : UTF-8 Plain Text
Language : English

Text #2
ID : 4
Format : UTF-8
Codec ID : S_TEXT/UTF8
Codec ID/Info : UTF-8 Plain Text
Language : Dutch

תמונה שפורסמה

Encode vs Source
תמונה שפורסמה תמונה שפורסמה
תמונה שפורסמה תמונה שפורסמה
תמונה שפורסמה תמונה שפורסמה

Additional screens

תמונה שפורסמה תמונה שפורסמה
תמונה שפורסמה תמונה שפורסמה



Like it? Dont forget to seed!

Comments are always welcome!

קבצים שצורפו



#2
 sadowm

sadowm

    ZSC FOR EVER

  •  Owner
  • 8137 הודעות
    • מונה תודות: 693 תודות
364
מעולה
:thankyou2:

#3
 NeoTrix

NeoTrix
  •  מנהלים ראשיים
  • 5533 הודעות
    • מונה תודות: 340 תודות
285
מעולה
תודה, אושר D:

#4
 BaBa

BaBa
  •  חברים רשומים
  • 12 הודעות
    • מונה תודות: 0 תודות
0
רגיל
תודה




0 משתמשים קוראים נושא זה

0 משתמשים, 0 אורחים, 0 משתמשים אנונימיים