עבור אל תוכן

Planet Earth 2006 1080p BluRay x264 AC3-n00b


  • אנא התחבר בכדי להגיב
אין תגובות לנושא זה

#1
 Effectively

Effectively
  •  צוות לשעבר
  • 2514 הודעות
    • מונה תודות: 88 תודות
75
טוב מאוד
Technical info on episode one only. I can add tech on all episodes if needed.


General
Complete name : D: Planet.Earth.2006.1080p.BluRay.x264.AC3-n00bPlanet.Earth.E01.From.Pole.to.Pole.2006.1080p.BluRay.x264.AC3-n00b.mkv
Format : Matroska
File size : 4.37 GiB
Duration : 51mn 10s
Overall bit rate : 12.2 Mbps
Encoded date : UTC 2009-04-10 15:54:37
Writing application : mkvmerge v2.5.3 ('Boogie') built on Mar 7 2009 15:00:41
Writing library : libebml v0.7.7 + libmatroska v0.8.1

Video
ID : 1
Format : AVC
Format/Info : Advanced Video Codec
Format profile : High@L4.1
Format settings, CABAC : Yes
Format settings, ReFrames : 4 frames
Muxing mode : Container profile=Unknown@4.1
Codec ID : V_MPEG4/ISO/AVC
Duration : 51mn 6s
Bit rate : 11.5 Mbps
Nominal bit rate : 11.8 Mbps
Width : 1 920 pixels
Height : 1 080 pixels
Display aspect ratio : 16:9
Frame rate : 23.976 fps
Resolution : 8 bits
Colorimetry : 4:2:0
Scan type : Progressive
Bits/(Pixel*Frame) : 0.232
Stream size : 4.12 GiB (94%)
Writing library : x264 core 67 r1129M c109c8e
Encoding settings : cabac=1 / ref=4 / deblock=1:-3:-3 / analyse=0x3:0x113 / me=esa / subme=9 / psy_rd=1.0:0.0 / mixed_ref=1 / me_range=24 / chroma_me=1 / trellis=2 / 8x8dct=1 / cqm=0 / deadzone=21,11 / chroma_qp_offset=-2 / threads=3 / nr=0 / decimate=0 / mbaff=0 / bframes=3 / b_pyramid=0 / b_adapt=2 / b_bias=0 / direct=3 / wpredb=1 / keyint=250 / keyint_min=25 / scenecut=40 / rc=2pass / bitrate=11787 / ratetol=1.0 / qcomp=0.60 / qpmin=10 / qpmax=51 / qpstep=4 / cplxblur=20.0 / qblur=0.5 / ip_ratio=1.40 / pb_ratio=1.30 / aq=1:0.50
Language : English

Audio
ID : 2
Format : AC-3
Format/Info : Audio Coding 3
Codec ID : A_AC3
Duration : 51mn 10s
Bit rate mode : Constant
Bit rate : 448 Kbps
Channel(s) : 6 channels
Channel positions : Front: L C R, Surround: L R, LFE
Sampling rate : 48.0 KHz
Stream size : 164 MiB (4%)
Title : Main
Language : English

תמונה שפורסמה

תמונה שפורסמה

תמונה שפורסמה

תמונה שפורסמה

תמונה שפורסמה

תמונה שפורסמה

קבצים שצורפו






0 משתמשים קוראים נושא זה

0 משתמשים, 0 אורחים, 0 משתמשים אנונימיים