עבור אל תוכן

Wrong Turn 2003 BluRay 720p


  • אנא התחבר בכדי להגיב
2 תגובות לנושא זה

#1
 Effectively

Effectively
  •  צוות לשעבר
  • 2514 הודעות
    • מונה תודות: 88 תודות
75
טוב מאוד

תמונה שפורסמה

תמונה שפורסמה


Chris Flynn is driving his car for a job interview in another city. However, an accident with a trunk transporting chemical products blocks the highway and Chris looks for an alternative route through the mountains of West Virginia to accomplish his schedule. Due to a lack of attention, he crashes another car parked in the middle of the road with flat tires. Chris meets a group of five friends, who intended to camp in the forest, and they decide to leave the couple Francine and Evan on the place, while Chris, Jessie, Carly and her fiancי Scott tries to find some help. They find a weird cabin in the middle of nowhere, where three violent cannibalistic mountain men with the appearance of monsters live. The two couples try to escape from the mountain men while chased by them.



תמונה שפורסמה





Desmond Harrington ... Chris Flynn

Eliza Dushku ... Jessie Burlingame

Emmanuelle Chriqui ... Carly

Jeremy Sisto ... Scott

Kevin Zegers ... Evan

Lindy Booth ... Francine

Julian Richings ... Three Finger
Garry Robbins ... Saw-Tooth
Ted Clark ... One-Eye
Yvonne Gaudry ... Halley
Joel Harris ... Rich
David Huband ... Trooper
Wayne Robson ... Old Man
James Downing ... Trucker


תמונה שפורסמה


Release :aZA
encoder :seahawk1990

General
Complete name : D:\encode\Wrong.Turn.2003.BluRay.720p.DTS.x264.aZA\Wrong.Turn.2003.BluRay.720p.DTS.x264.aZA.mkv
Format : Matroska
File size : 2.18 GiB
Duration : 1h 24mn
Overall bit rate : 3 713 Kbps
Encoded date : UTC 2010-02-03 03:57:17
Writing application : mkvmerge v2.9.8 ('C'est le bon') built on Aug 13 2009 12:49:06
Writing library : libebml v0.7.7 + libmatroska v0.8.1

Video
ID : 1
Format : AVC
Format/Info : Advanced Video Codec
Format profile : High@L4.1
Format settings, CABAC : Yes
Format settings, ReFrames : 4 frames
Muxing mode : Container profile=Unknown@4.1
Codec ID : V_MPEG4/ISO/AVC
Duration : 1h 24mn
Bit rate : 2 883 Kbps
Nominal bit rate : 3 055 Kbps
Width : 1 280 pixels
Height : 688 pixels
Display aspect ratio : 1.850
Frame rate : 23.976 fps
Resolution : 24 bits
Colorimetry : 4:2:0
Scan type : Progressive
Bits/(Pixel*Frame) : 0.137
Stream size : 1.69 GiB (78%)
Writing library : x264 core 79 r1342 e8501ef
Encoding settings : cabac=1 / ref=4 / deblock=1:1:1 / analyse=0x3:0x113 / me=umh / subme=9 / psy=1 / psy_rd=1.0:0.0 / mixed_ref=1 / me_range=64 / chroma_me=1 / trellis=2 / 8x8dct=1 / cqm=0 / deadzone=21,11 / chroma_qp_offset=-2 / threads=3 / nr=0 / decimate=1 / mbaff=0 / constrained_intra=0 / bframes=3 / b_pyramid=0 / b_adapt=2 / b_bias=0 / direct=1 / wpredb=0 / wpredp=2 / keyint=250 / keyint_min=25 / scenecut=40 / rc_lookahead=60 / rc=abr / mbtree=1 / bitrate=3055 / ratetol=1.0 / qcomp=0.60 / qpmin=10 / qpmax=51 / qpstep=4 / ip_ratio=1.40 / aq=1:1.00
Language : English

Audio
ID : 2
Format : DTS
Format/Info : Digital Theater Systems
Codec ID : A_DTS
Duration : 1h 24mn
Bit rate mode : Constant
Bit rate : 755 Kbps
Channel(s) : 6 channels
Channel positions : Front: L C R, Surround: L R, LFE
Sampling rate : 48.0 KHz
Resolution : 24 bits
Stream size : 455 MiB (20%)

Text #1
ID : 3
Format : UTF-8
Codec ID : S_TEXT/UTF8
Codec ID/Info : UTF-8 Plain Text
Language : English

Text #2
ID : 4
Format : UTF-8
Codec ID : S_TEXT/UTF8
Codec ID/Info : UTF-8 Plain Text
Language : Dutch





תמונה שפורסמה

תמונה שפורסמה

תמונה שפורסמה

תמונה שפורסמה

תמונה שפורסמה

תמונה שפורסמה

קבצים שצורפו



#2
 sadowm

sadowm

    ZSC FOR EVER

  •  Owner
  • 8137 הודעות
    • מונה תודות: 693 תודות
364
מעולה
תודה רבה :)

#3
 Bgirlpica

Bgirlpica
  •  צוות לשעבר
  • 1728 הודעות
    • מונה תודות: 34 תודות
31
בינוני
תודה לך אושר תמשיך ככה:)




0 משתמשים קוראים נושא זה

0 משתמשים, 0 אורחים, 0 משתמשים אנונימיים